TV / Akcja
Shooter S03E11 - Family Fire [1080p.NF.WEB-DL.H.264.DD5.1] [Lektor PL] [ENG+Napisy PL]


Dodał: Lukarusi
Data dodania:
2018-08-31 15:20:36
Rozmiar: 2.14 GB
Ostat. aktualizacja:
2018-09-03 22:28:00
Seedów: 153
Peerów: 38


Komentarze: 2

Info:

produkcja: USA
gatunek: Akcja, Dramat
reżyseria: Simon Cellan Jones, Christoph Schrewe, Kevin Bray
scenariusz: John Hlavin, Stephen Hunter, T.J. Brady, Rasheed Newson
muzyka: Bobby Krlic
zdjęcia: Jaime Reynoso, Anthony Hardwick
czas trwania: ok. 42 min.

Opis:

Były snajper Marines powraca do służby, aby udaremnić zamach na prezydenta Stanów Zjednoczonych. Wkrótce zostaje oskarżony o morderstwo, którego nie popełnił.

Obsada:

Lexy Kolker - Mary Swagger
Ryan Phillippe - Bob Lee Swagger
Shantel VanSanten - Julie Swagger
Cynthia Addai-Robinson - Nadine Memphis
Eddie McClintock - Jack Payne
Omar Epps - Isaac Johnson
Josh Stewart - Solotov
Gina Gallego - Estella
David Marciano - Howard Utey
Tom Sizemore - Hugh Meachum
Patrick Sabongui - Yusuf Ali

Dane techniczne:

Format : Matroska
Format version : Version 4 / Version 2
File size : 2.14 GiB
Duration : 42 min 16 s
Overall bit rate mode : Variable
Overall bit rate : 7 247 kb/s
Encoded date : UTC 2018-08-31 13:14:24

Video
ID : 1
Format : AVC
Format/Info : Advanced Video Codec
Format profile : Main@L4
Format settings : CABAC / 3 Ref Frames
Format settings, CABAC : Yes
Format settings, ReFrames : 3 frames
Codec ID : V_MPEG4/ISO/AVC
Duration : 42 min 16 s
Bit rate mode : Variable
Bit rate : 6 490 kb/s
Maximum bit rate : 9 735 kb/s
Width : 1 920 pixels
Height : 1 080 pixels
Display aspect ratio : 16:9
Frame rate mode : Constant
Frame rate : 23.976 (24000/1001) FPS
Color space : YUV
Chroma subsampling : 4:2:0
Bit depth : 8 bits
Scan type : Progressive
Bits/(Pixel*Frame) : 0.131
Stream size : 1.91 GiB (89%)

Audio 1
ID : 2
Format : AC-3
Format/Info : Audio Coding 3
Codec ID : A_AC3
Duration : 42 min 16 s
Bit rate mode : Constant
Bit rate : 384 kb/s
Channel(s) : 6 channels
Channel positions : Front: L C R, Side: L R, LFE
Sampling rate : 48.0 kHz
Frame rate : 31.250 FPS (1536 SPF)
Bit depth : 16 bits
Compression mode : Lossy
Stream size : 116 MiB (5%)
Language : Polish
Service kind : Complete Main
Default : Yes
Forced : Yes

Audio 2
ID : 3
Format : AC-3
Format/Info : Audio Coding 3
Codec ID : A_AC3
Duration : 42 min 16 s
Bit rate mode : Constant
Bit rate : 384 kb/s
Channel(s) : 6 channels
Channel positions : Front: L C R, Side: L R, LFE
Sampling rate : 48.0 kHz
Frame rate : 31.250 FPS (1536 SPF)
Bit depth : 16 bits
Compression mode : Lossy
Stream size : 116 MiB (5%)
Language : English
Service kind : Complete Main
Default : No
Forced : No

Text
ID : 4
Format : UTF-8
Codec ID : S_TEXT/UTF8
Codec ID/Info : UTF-8 Plain Text
Duration : 39 min 48 s
Bit rate : 64 b/s
Count of elements : 597
Stream size : 18.9 KiB (0%)
Language : Polish
Default : No
Forced : No

Lista plików Show/Hide [Pokaż/Ukryj]
Trackery
  • udp://tracker.leechers-paradise.org:6969/announce
  • udp://shadowshq.eddie4.nl:6969/announce
  • udp://eddie4.nl:6969/announce
  • http://tracker.vanitycore.co:6969/announce
  • http://tracker.torrentyorg.pl/announce
  • udp://9.rarbg.me:2740/announce
  • udp://9.rarbg.com:2800/announce
  • udp://exodus.desync.com:6969/announce
  • udp://poloniumsurfer.tk:6969/announce
  • udp://torrent.gresille.org:80/announce
  • http://tracker.filetracker.pl:8089/announce
  • udp://tracker.pomf.se:80/announce
  • udp://10.rarbg.com/announce
  • udp://sugoi.pomf.se:80/announce
  • udp://tracker.glotorrents.com:6969/announce
  • udp://tracker.openbittorrent.com:80/announce
  • http://mgtracker.org:2710/announce
  • udp://tracker.istole.it:80/announce
  • udp://tracker.prq.to/announce
  • udp://tracker.torrentbay.to:6969/announce
  • udp://tracker.publicbt.com/announce
  • http://retracker.omsk.ru:2710/announce
  • udp://t1.pow7.com/announce
  • http://agusiq-torrents.pl:6969/announce
  • http://tracker.tfile.me/announce

<< Poprzednia      Następna >>
1 - 2

Dodał: Elrzbieta Data: 2018-09-09 11:33:52

Wstawisz następny odcinek w tym formacie
Pozdrawiam

Dodał: Elrzbieta Data: 2018-09-14 17:48:44

Poproszę o wstawkę następnego odcinka w tej wersji.
Pozdrawiam

1 - 2
<< Poprzednia      Następna >>

Żaden z plików nie znajduje się na serwerze. Torrenty są własnością użytkowników. Administrator serwisu nie może ponieść konsekwencji za to co użytkownicy wstawiają, lub za to co czynią na stronie. Nie możesz używać tego serwisu do rozpowszechniania lub ściągania materiałów do których nie masz odpowiednich praw lub licencji. Użytkownicy odpowiedzialni są za przestrzeganie tych zasad.
Copyright © 2018 Exi-torrenty-org.pl